<?xml version="1.0" standalone="no"?>
<!DOCTYPE svg PUBLIC "-//W3C//DTD SVG 1.1//EN" "http://www.w3.org/Graphics/SVG/1.1/DTD/svg11.dtd" >
<svg xmlns="http://www.w3.org/2000/svg">
<metadata>Generated by IcoMoon</metadata>
<defs>
<font id="swiftbox" horiz-adv-x="1024">
<font-face units-per-em="1024" ascent="960" descent="-64" />
<missing-glyph horiz-adv-x="1024" />
<glyph unicode="&#x20;" horiz-adv-x="512" d="" />
<glyph unicode="&#xe900;" glyph-name="close" d="M887.305 177.262l-262.4 263.399 263 260c10.8 10.8 10.8 28.4 0 39.2l-74.8 75.2c-5.2 5.2-12.2 8-19.6 8s-14.4-3-19.6-8l-261.8-259.2-262.199 259c-5.2 5.2-12.2 8-19.6 8s-14.4-3-19.6-8l-74.6-75.2c-10.8-10.8-10.8-28.4 0-39.2l263-260-262.199-263.2c-5.2-5.2-8.2-12.2-8.2-19.6s2.8-14.4 8.2-19.6l74.8-75.2c5.4-5.4 12.4-8.2 19.6-8.2 7 0 14.2 2.6 19.6 8.2l261.2 262.4 261.4-262.199c5.4-5.4 12.4-8.2 19.6-8.2 7 0 14.2 2.6 19.6 8.2l74.8 75.2c5.2 5.2 8.2 12.2 8.2 19.6-0.2 7.2-3.2 14.2-8.4 19.4z" />
<glyph unicode="&#xe901;" glyph-name="lightbox-link" d="M511.989 877.552c241.884 0 438.685-196.801 438.685-438.685s-196.801-438.685-438.685-438.685-438.685 196.801-438.685 438.685 196.744 438.685 438.685 438.685zM511.989 950.856c-282.766 0-511.988-229.222-511.988-511.988s229.222-511.988 511.988-511.988c282.709 0 511.988 229.222 511.988 511.988s-229.335 511.988-511.988 511.988v0zM701.692 628.855c-23.904 23.961-55.758 37.191-89.712 37.191-34.011 0-65.865-13.23-89.769-37.191l-57.121-57.178c-3.463-3.35-6.53-6.871-9.539-10.504l-8.063-9.937 12.832 0.682c16.523 1.136 33.33-0.851 49.058-5.167l3.18-0.851 46.276 46.276c14.195 14.138 33.046 21.917 53.146 21.917 20.157 0 39.178-7.836 53.487-22.145 14.138-14.138 21.917-32.876 21.917-52.806 0.057-20.101-7.836-39.065-22.145-53.317l-57.348-57.178c-6.075-6.132-13.059-11.072-20.781-14.649-10.107-4.827-21.577-7.382-33.16-7.382-1.306 0-2.669 0-3.805 0.057-18.34 1.25-35.544 9.142-48.49 22.031-15.444 15.501-41.507 17.602-59.279 5.053l-3.918-2.783 2.044-4.316c5.962-12.548 14.195-24.189 24.586-34.693 10.164-10.107 21.803-18.283 34.409-24.358 13.003-6.303 27.084-10.448 41.847-12.094 4.372-0.454 8.744-0.682 13.116-0.682 11.072 0 22.257 1.419 33.046 4.372 17.147 4.542 32.705 12.435 46.503 23.393 3.634 3.009 7.154 5.962 10.561 9.369l57.064 57.235c24.075 23.961 37.248 55.872 37.305 89.769 0.057 34.011-13.23 65.865-37.248 89.883zM514.487 331.213l-3.18 0.908-46.276-46.389c-14.252-14.195-33.16-22.031-53.203-22.031-20.101 0-39.008 7.836-53.26 21.974-14.195 14.309-22.088 33.216-22.088 53.26s7.836 38.895 22.088 53.089l57.178 57.291c6.189 6.075 13.23 11.015 20.895 14.649 11.413 5.507 24.529 8.006 37.077 7.211 18.397-1.193 35.601-8.971 48.49-21.86 15.444-15.558 41.45-17.772 59.279-5.053l3.918 2.783-2.101 4.316c-6.075 12.605-14.309 24.246-24.529 34.522-10.107 10.050-21.746 18.283-34.636 24.472-13.059 6.473-27.141 10.504-41.733 12.037-15.614 1.59-31.343 0.397-46.163-3.634-17.034-4.485-32.649-12.378-46.332-23.336-3.748-2.952-7.325-6.132-10.675-9.482l-57.235-57.235c-49.455-49.512-49.286-130.197 0.397-179.937 23.847-23.904 55.531-37.021 89.201-37.021 33.898 0 65.865 13.23 89.997 37.418l57.178 57.178c3.35 3.294 6.53 6.871 9.539 10.731l7.608 9.823-12.435-0.739c-16.636-0.908-33.387 0.739-49.001 5.053z" />
<glyph unicode="&#xe902;" glyph-name="lightbox-link2" d="M511.996 877.545c241.884 0 438.685-196.801 438.685-438.685s-196.801-438.685-438.685-438.685-438.685 196.801-438.685 438.685 196.744 438.685 438.685 438.685zM511.996 950.849c-282.766 0-511.988-229.222-511.988-511.988s229.222-511.988 511.988-511.988c282.709 0 511.988 229.222 511.988 511.988s-229.335 511.988-511.988 511.988v0zM644.465 196.522c-220.648 7.836-391.387 190.782-184.025 374.069l-92.155 88.918 287.024 0.34-0.34-270.388-94.142 87.725c-172.726-153.364-37.134-248.357 83.637-280.665z" />
<glyph unicode="&#xe904;" glyph-name="lightbox-more" d="M511.995 877.546c241.884 0 438.685-196.801 438.685-438.685s-196.801-438.685-438.685-438.685-438.685 196.801-438.685 438.685 196.744 438.685 438.685 438.685zM511.995 950.85c-282.766 0-511.988-229.222-511.988-511.988s229.222-511.988 511.988-511.988c282.709 0 511.988 229.222 511.988 511.988s-229.335 511.988-511.988 511.988v0zM555.375 482.185v197.766h-88.578v-197.766h-195.325v-82.956h195.325v-199.526h88.578v199.526h195.211v82.956z" />
<glyph unicode="&#xe906;" glyph-name="lightbox-photo" d="M510.652 489.755c-26.396 0-47.9-21.561-47.9-47.9 0-26.51 21.504-48.185 47.9-48.185 26.51 0 48.185 21.675 48.185 48.185 0 26.34-21.618 47.9-48.185 47.9zM511.904 608.71c-156.217 0-313.515-169.927-313.515-169.927s157.355-169.87 313.515-169.87c156.331 0 313.685 169.87 313.685 169.87s-157.355 169.927-313.685 169.927zM511.904 320.34c-66.276 0-120.206 53.76-120.206 120.32 0 66.446 53.931 120.206 120.206 120.206 66.56 0 120.32-53.76 120.32-120.206 0-66.503-53.703-120.32-120.32-120.32zM512.075 878.078c242.119 0 439.125-197.006 439.125-439.353 0-242.119-197.006-439.125-439.125-439.125-242.29 0-439.353 197.006-439.353 439.125 0.057 242.347 197.063 439.353 439.353 439.353zM512.075 951.522c-283.25 0-512.74-229.49-512.74-512.74 0-283.079 229.49-512.569 512.74-512.569 283.079 0 512.569 229.49 512.569 512.569 0 283.25-229.49 512.74-512.569 512.74v0z" />
<glyph unicode="&#xe907;" glyph-name="lightbox-video" d="M337.225 661.987c0-149.333 0-296.903 0-446.123 148.992 74.468 296.619 148.252 446.35 223.061-149.959 74.866-297.586 148.708-446.35 223.061zM511.988 878.392c242.347 0 439.524-197.177 439.524-439.524s-197.177-439.524-439.524-439.524c-242.347 0-439.524 197.177-439.524 439.524s197.12 439.524 439.524 439.524zM511.988 951.836c-283.307 0-512.967-229.66-512.967-512.967s229.66-512.967 512.967-512.967c283.25 0 512.967 229.66 512.967 512.967s-229.774 512.967-512.967 512.967v0z" />
<glyph unicode="&#xe908;" glyph-name="link" d="M805.759-71.634c-486.059 17.351-862.15 420.636-405.333 824.206l-202.866 195.982 632.377 0.796-0.796-595.74-207.36 193.194c-380.644-337.92-81.92-547.044 183.979-618.439z" />
<glyph unicode="&#xe909;" glyph-name="share" d="M847.723 278.836c-46.023 0-87.268-18.148-118.841-47.047l-378.425 186.652c0.341 3.982 1.252 7.908 1.252 12.060 0 2.674-0.683 5.234-0.796 7.794l389.803 197.916c29.696-23.040 66.446-37.376 107.008-37.376 97.166 0 175.957 78.734 175.957 175.73-0.057 97.052-78.791 175.73-175.957 175.73-96.882 0-175.559-78.677-175.559-175.673l-395.321-200.59c-28.558 20.139-63.204 32.199-100.864 32.199-96.996 0-175.673-78.677-175.673-175.73 0-96.939 78.677-175.844 175.673-175.844 37.433 0 71.908 12.004 100.409 31.915l396.857-195.641c6.258-91.193 81.579-163.499 174.421-163.499 97.166 0 175.957 78.62 175.957 175.616s-78.734 175.787-175.9 175.787z" />
<glyph unicode="&#xe90a;" glyph-name="more" d="M606.663 528.173v422.684h-189.212v-422.684h-417.451v-177.209h417.451v-426.382h189.212v426.382h417.337v177.209z" />
<glyph unicode="&#xf017;" glyph-name="clock-o" horiz-adv-x="878" d="M512 640v-256c0-10.286-8-18.286-18.286-18.286h-182.857c-10.286 0-18.286 8-18.286 18.286v36.571c0 10.286 8 18.286 18.286 18.286h128v201.143c0 10.286 8 18.286 18.286 18.286h36.571c10.286 0 18.286-8 18.286-18.286zM749.714 438.857c0 171.429-139.429 310.857-310.857 310.857s-310.857-139.429-310.857-310.857 139.429-310.857 310.857-310.857 310.857 139.429 310.857 310.857zM877.714 438.857c0-242.286-196.571-438.857-438.857-438.857s-438.857 196.571-438.857 438.857 196.571 438.857 438.857 438.857 438.857-196.571 438.857-438.857z" />
<glyph unicode="&#xf04b;" glyph-name="play" horiz-adv-x="809" d="M790.857 421.143l-758.857-421.714c-17.714-9.714-32-1.143-32 18.857v841.143c0 20 14.286 28.571 32 18.857l758.857-421.714c17.714-9.714 17.714-25.714 0-35.429z" />
<glyph unicode="&#xf053;" glyph-name="chevron-left" horiz-adv-x="768" d="M669.143 778.857l-303.429-303.429 303.429-303.429c14.286-14.286 14.286-37.143 0-51.429l-94.857-94.857c-14.286-14.286-37.143-14.286-51.429 0l-424 424c-14.286 14.286-14.286 37.143 0 51.429l424 424c14.286 14.286 37.143 14.286 51.429 0l94.857-94.857c14.286-14.286 14.286-37.143 0-51.429z" />
<glyph unicode="&#xf054;" glyph-name="chevron-right" horiz-adv-x="695" d="M632.571 449.714l-424-424c-14.286-14.286-37.143-14.286-51.429 0l-94.857 94.857c-14.286 14.286-14.286 37.143 0 51.429l303.429 303.429-303.429 303.429c-14.286 14.286-14.286 37.143 0 51.429l94.857 94.857c14.286 14.286 37.143 14.286 51.429 0l424-424c14.286-14.286 14.286-37.143 0-51.429z" />
<glyph unicode="&#xf077;" glyph-name="chevron-up" d="M961.714 190.286l-94.857-94.286c-14.286-14.286-37.143-14.286-51.429 0l-303.429 303.429-303.429-303.429c-14.286-14.286-37.143-14.286-51.429 0l-94.857 94.286c-14.286 14.286-14.286 37.714 0 52l424 423.429c14.286 14.286 37.143 14.286 51.429 0l424-423.429c14.286-14.286 14.286-37.714 0-52z" />
<glyph unicode="&#xf078;" glyph-name="chevron-down" d="M961.714 489.143l-424-423.429c-14.286-14.286-37.143-14.286-51.429 0l-424 423.429c-14.286 14.286-14.286 37.714 0 52l94.857 94.286c14.286 14.286 37.143 14.286 51.429 0l303.429-303.429 303.429 303.429c14.286 14.286 37.143 14.286 51.429 0l94.857-94.286c14.286-14.286 14.286-37.714 0-52z" />
<glyph unicode="&#xf08e;" glyph-name="external-link" d="M804.571 420.571v-182.857c0-90.857-73.714-164.571-164.571-164.571h-475.429c-90.857 0-164.571 73.714-164.571 164.571v475.429c0 90.857 73.714 164.571 164.571 164.571h402.286c10.286 0 18.286-8 18.286-18.286v-36.571c0-10.286-8-18.286-18.286-18.286h-402.286c-50.286 0-91.429-41.143-91.429-91.429v-475.429c0-50.286 41.143-91.429 91.429-91.429h475.429c50.286 0 91.429 41.143 91.429 91.429v182.857c0 10.286 8 18.286 18.286 18.286h36.571c10.286 0 18.286-8 18.286-18.286zM1024 914.286v-292.571c0-20-16.571-36.571-36.571-36.571-9.714 0-18.857 4-25.714 10.857l-100.571 100.571-372.571-372.571c-3.429-3.429-8.571-5.714-13.143-5.714s-9.714 2.286-13.143 5.714l-65.143 65.143c-3.429 3.429-5.714 8.571-5.714 13.143s2.286 9.714 5.714 13.143l372.571 372.571-100.571 100.571c-6.857 6.857-10.857 16-10.857 25.714 0 20 16.571 36.571 36.571 36.571h292.571c20 0 36.571-16.571 36.571-36.571z" />
<glyph unicode="&#xf099;" glyph-name="twitter" horiz-adv-x="951" d="M925.714 717.714c-25.143-36.571-56.571-69.143-92.571-95.429 0.571-8 0.571-16 0.571-24 0-244-185.714-525.143-525.143-525.143-104.571 0-201.714 30.286-283.429 82.857 14.857-1.714 29.143-2.286 44.571-2.286 86.286 0 165.714 29.143 229.143 78.857-81.143 1.714-149.143 54.857-172.571 128 11.429-1.714 22.857-2.857 34.857-2.857 16.571 0 33.143 2.286 48.571 6.286-84.571 17.143-148 91.429-148 181.143v2.286c24.571-13.714 53.143-22.286 83.429-23.429-49.714 33.143-82.286 89.714-82.286 153.714 0 34.286 9.143 65.714 25.143 93.143 90.857-112 227.429-185.143 380.571-193.143-2.857 13.714-4.571 28-4.571 42.286 0 101.714 82.286 184.571 184.571 184.571 53.143 0 101.143-22.286 134.857-58.286 41.714 8 81.714 23.429 117.143 44.571-13.714-42.857-42.857-78.857-81.143-101.714 37.143 4 73.143 14.286 106.286 28.571z" />
<glyph unicode="&#xf09a;" glyph-name="facebook, facebook-f" horiz-adv-x="602" d="M548 944v-150.857h-89.714c-70.286 0-83.429-33.714-83.429-82.286v-108h167.429l-22.286-169.143h-145.143v-433.714h-174.857v433.714h-145.714v169.143h145.714v124.571c0 144.571 88.571 223.429 217.714 223.429 61.714 0 114.857-4.571 130.286-6.857z" />
<glyph unicode="&#xf0d2;" glyph-name="pinterest" horiz-adv-x="878" d="M877.714 438.857c0-242.286-196.571-438.857-438.857-438.857-43.429 0-84.571 6.286-124.571 18.286 16.571 26.286 35.429 60 44.571 93.714 0 0 5.143 19.429 30.857 120.571 14.857-29.143 59.429-54.857 106.857-54.857 141.143 0 237.143 128.571 237.143 301.143 0 129.714-110.286 251.429-278.286 251.429-208 0-313.143-149.714-313.143-274.286 0-75.429 28.571-142.857 89.714-168 9.714-4 18.857 0 21.714 11.429 2.286 7.429 6.857 26.857 9.143 34.857 2.857 11.429 1.714 14.857-6.286 24.571-17.714 21.143-29.143 48-29.143 86.286 0 110.857 82.857 210.286 216 210.286 117.714 0 182.857-72 182.857-168.571 0-126.286-56-233.143-139.429-233.143-45.714 0-80 37.714-69.143 84.571 13.143 55.429 38.857 115.429 38.857 155.429 0 36-19.429 66.286-59.429 66.286-46.857 0-84.571-48.571-84.571-113.714 0 0 0-41.714 14.286-69.714-48-203.429-56.571-238.857-56.571-238.857-8-33.143-8.571-70.286-7.429-101.143-154.857 68-262.857 222.286-262.857 402.286 0 242.286 196.571 438.857 438.857 438.857s438.857-196.571 438.857-438.857z" />
<glyph unicode="&#xf0d5;" glyph-name="google-plus" horiz-adv-x="1317" d="M821.143 429.143c0-239.429-160.571-409.143-402.286-409.143-231.429 0-418.857 187.429-418.857 418.857s187.429 418.857 418.857 418.857c113.143 0 207.429-41.143 280.571-109.714l-113.714-109.143c-30.857 29.714-85.143 64.571-166.857 64.571-142.857 0-259.429-118.286-259.429-264.571s116.571-264.571 259.429-264.571c165.714 0 228 119.429 237.714 180.571h-237.714v144h395.429c4-21.143 6.857-42.286 6.857-69.714zM1316.571 498.857v-120h-119.429v-119.429h-120v119.429h-119.429v120h119.429v119.429h120v-119.429h119.429z" />
</font>
</defs>
</svg>
